Ennatha Solla (Vizha) - Video Song - 720P HD - AVC - Team SR
Follow us on...
Follow us on Twitter Follow us on Facebook
Register



Results 1 to 1 of 1
  1. #1
    dS Superstar www.desi-shows.net RESUMELINKS's Avatar
    Join Date
    Feb 2013
    Posts
    4,256

    Cool Ennatha Solla (Vizha) - Video Song - 720P HD - AVC - Team SR






    Ennatha Solla (Vizha) - Video Song - 720P HD - AVC - SR



    -: Movie Info :-



    -: Media Info :-

    General
    Complete name : E:\Ennatha Solla (Vizha) - Video Song - 720P HD - AVC - Team SR\Ennatha Solla (Vizha) - Video Song - 720P HD - AVC - Team SR.mp4
    Format : MPEG-4
    Format profile : Base Media / Version 2
    Codec ID : mp42
    File size : 66.0 MiB
    Duration : 4mn 53s
    Overall bit rate mode : Variable
    Overall bit rate : 1 885 Kbps
    Encoded date : UTC 2014-01-09 01:29:45
    Tagged date : UTC 2014-01-09 01:29:45
    gsst : 0
    gstd : 293708
    gssd : B4A7DA924HH1389708354419827
    gshh : r13---sn-h557snee.googlevideo.com

    Video
    ID : 1
    Format : AVC
    Format/Info : Advanced Video Codec
    Format profile : High@L3.1
    Format settings, CABAC : Yes
    Format settings, ReFrames : 1 frame
    Codec ID : avc1
    Codec ID/Info : Advanced Video Coding
    Duration : 4mn 53s
    Bit rate : 1 691 Kbps
    Maximum bit rate : 4 310 Kbps
    Width : 1 280 pixels
    Height : 720 pixels
    Display aspect ratio : 16:9
    Frame rate mode : Constant
    Frame rate : 29.000 fps
    Color space : YUV
    Chroma subsampling : 4:2:0
    Bit depth : 8 bits
    Scan type : Progressive
    Bits/(Pixel*Frame) : 0.063
    Stream size : 59.2 MiB (90%)
    Tagged date : UTC 2014-01-09 01:29:47

    Audio
    ID : 2
    Format : AAC
    Format/Info : Advanced Audio Codec
    Format profile : LC
    Codec ID : 40
    Duration : 4mn 53s
    Bit rate mode : Variable
    Bit rate : 192 Kbps
    Maximum bit rate : 201 Kbps
    Channel(s) : 2 channels
    Channel positions : Front: L R
    Sampling rate : 44.1 KHz
    Compression mode : Lossy
    Stream size : 6.72 MiB (10%)
    Title : IsoMedia File Produced by Google, 5-11-2011
    Encoded date : UTC 2014-01-09 01:29:46
    Tagged date : UTC 2014-01-09 01:29:47



    -: Screens :-





    All Credits Goes To Original Ripper (Thanks)


    DOWNLOAD




    ArabloadS

    Code:
    http://www.arabloads.com/hdw4ndkbglf3/Ennatha_Solla_.Vizha_.Video_Song_.mp4.html


    FilesflasH

    Code:
    http://filesflash.net/8xcckxh2


  2. # ADS
    Circuit advertisement
    Join Date
    Always
    Posts
    Many
     

 

 

Visitors found this page by searching for

http:www.desi-shows.nettollywood-music339807-ennatha-solla-vizha-video-song-720p-hd-avc-team-sr.html

vizha mp4 songs

vizha hd videos

vizha HD songs

www.vizhavideosonges.com

vizhavideo

vizha mp4 video song

vizha video songs mp4

vizha video songs hd

www.desi-shows.nettollywood-music339807-ennatha-solla-vizha-video-song-720p-hd-avc-team-sr.html

vizha mp4ennatha solla hd songs from vizha movievizha video songs download mp4vizha video songs downloadvizha hd mp4Vizha HD videos downloadvizha HD mp4 video songsvizha ennatha solla hd video songsvizha viedo songs download ultra hdennatha soll mp4vizha video song downloadvizhavidoes.comvizha mp4 hd vizha hd 1080p video songs downloadvizha video songs mp4 com

Thread Information

Users Browsing this Thread

There are currently 1 users browsing this thread. (0 members and 1 guests)

Similar Threads

  1. Replies: 0
    Last Post: 01-16-2014, 01:15 PM
  2. Ramaiya Vastavaiya (2013) (All Video Song) - Dvd -1CdRip-Xvid--Sam--Team IcFg
    By RESUMELINKS in forum Hindi Music Videos/Promos
    Replies: 0
    Last Post: 11-24-2013, 09:03 AM
  3. Blue Eyes Full Video Song 720P Yo Yo Honey Singh Team Ictv Exclusive
    By RESUMELINKS in forum Hindi Music Videos/Promos
    Replies: 0
    Last Post: 11-09-2013, 02:12 PM
  4. Singh Saab the Great - Title Song - Video Song [ HD 720p ]
    By thewall81317 in forum Hindi Music Videos/Promos
    Replies: 0
    Last Post: 11-09-2013, 08:53 AM
  5. Po Po Official Video Song - Son Of Sardar (2012) Team Ictv Exclusive
    By bharg123 in forum Hindi Music Videos/Promos
    Replies: 0
    Last Post: 10-18-2012, 07:34 AM

Posting Permissions

  • You may not post new threads
  • You may not post replies
  • You may not post attachments
  • You may not edit your posts
  •