1 Nenokkadine (2014) Rhyme Video Song - 1080P HD
Follow us on...
Follow us on Twitter Follow us on Facebook
Register



Results 1 to 1 of 1
  1. #1
    dS Superstar www.desi-shows.net RESUMELINKS's Avatar
    Join Date
    Feb 2013
    Posts
    3,516

    Cool 1 Nenokkadine (2014) Rhyme Video Song - 1080P HD






    INFO

    General
    Format : MPEG-4
    Format profile : Base Media
    Codec ID : isom
    File size : 18.2 MiB
    Duration : 57s 818ms
    Overall bit rate mode : Variable
    Overall bit rate : 2 635 Kbps
    Encoded date : UTC 2014-01-23 12:35:20
    Tagged date : UTC 2014-01-23 12:35:20

    Video
    ID : 1
    Format : AVC
    Format/Info : Advanced Video Codec
    Format profile : High@L4.0
    Format settings, CABAC : Yes
    Format settings, ReFrames : 2 frames
    Codec ID : avc1
    Codec ID/Info : Advanced Video Coding
    Duration : 57s 742ms
    Bit rate : 2 509 Kbps
    Width : 1 920 pixels
    Height : 1 080 pixels
    Display aspect ratio : 16:9
    Frame rate mode : Variable
    Frame rate : 24.000 fps
    Minimum frame rate : 24.000 fps
    Maximum frame rate : 30.612 fps
    Color space : YUV
    Chroma subsampling : 4:2:0
    Bit depth : 8 bits
    Scan type : Progressive
    Bits/(Pixel*Frame) : 0.050
    Stream size : 17.3 MiB (95%)
    Encoded date : UTC 2014-01-23 12:35:20
    Tagged date : UTC 2014-01-23 12:35:20

    Audio
    ID : 2
    Format : AAC
    Format/Info : Advanced Audio Codec
    Format profile : LC
    Codec ID : 40
    Duration : 57s 818ms
    Bit rate mode : Variable
    Bit rate : 126 Kbps
    Channel(s) : 2 channels
    Channel positions : Front: L R
    Sampling rate : 44.1 KHz
    Compression mode : Lossy
    Delay relative to video : -3s 750ms
    Stream size : 886 KiB (5%)
    Encoded date : UTC 2014-01-23 12:35:03
    Tagged date : UTC 2014-01-23 12:35:03


    T -SS




    MORE SS




    DOWNLOAD




    ArabloadS

    Code:
    http://www.arabloads.com/gtesclohjpoj/1.Nenokkadine.Rhyme.Video.Song.1080P.mp4.html


    FilesflasH

    Code:
    http://filesflash.net/iqdohmnm


    All Credits Goes To Original Ripper (Thanks)

  2. # ADS
    Circuit advertisement
    Join Date
    Always
    Posts
    Many
     

 

 

Visitors found this page by searching for

http:www.desi-shows.nettollywood-music342454-1-nenokkadine-2014-rhyme-video-song-1080p-hd.html

Nenokkadin videosongs downloadnenokkadin movie video songs1 nenokkadine hd video songs1 nenokkadin movie video song download1 nenokkadine video songs downloadingnenokkadin hd 1080p videosongsnenokkadine rhyme video downloadnenokkadine hd video songs downloadnenokkadine last rhyme video songs downloadnenokkadine last songnenokkadine hd videosnenokkadine last song videonenokkadine video songsnenokkadine last song hd1_nenokkadin.song.vidos.hd

Thread Information

Users Browsing this Thread

There are currently 1 users browsing this thread. (0 members and 1 guests)

Similar Threads

  1. Replies: 0
    Last Post: 01-24-2014, 05:40 AM
  2. Jiya - (Bengali Version) Gunday (2014) - Video Song 1080p HD
    By RESUMELINKS in forum Bangla Music/Videos
    Replies: 0
    Last Post: 01-22-2014, 08:59 AM
  3. Replies: 0
    Last Post: 01-20-2014, 10:23 AM
  4. Miss Lovely (2014) Dum Dum Dede - Official Song 1080p
    By RESUMELINKS in forum Hindi Music Videos/Promos
    Replies: 0
    Last Post: 01-17-2014, 07:20 AM
  5. Bande Hain Hum - Song with Lyrics - Dhoom 3 (2014) -1080p HD
    By adnan786 in forum Hindi Music Videos/Promos
    Replies: 0
    Last Post: 01-16-2014, 08:31 AM

Posting Permissions

  • You may not post new threads
  • You may not post replies
  • You may not post attachments
  • You may not edit your posts
  •